Movies - Other

6 Days 2017 WEB-DL XviD AC3-FGT

  • Download 5x Faster
  • Download torrent
  • Direct Download
  • Rate this torrent +  |  -
6 Days 2017 WEB-DL XviD AC3-FGT

Anonymous and Free Direct Download


Torrent info

Name:6 Days 2017 WEB-DL XviD AC3-FGT

Total Size: 1.46 GB

Magnet: Magnet Link

Seeds: 152

Leechers: 49

Stream: Watch Online @ Movie4u

Torrent added: 2017-08-18 09:01:05



VPN For Torrents

Torrent Files List


6.Days.2017.WEB-DL.XviD.AC3-FGT.avi (Size: 1.46 GB) (Files: 4)

 6.Days.2017.WEB-DL.XviD.AC3-FGT.avi

1.46 GB

 English-FORCED.srt

1.52 KB

 English.srt

106.46 KB

 RARBG.txt

0.03 KB
 

tracker

leech seeds
 

Torrent description

https://lookimg.com/image/A0AME

https://lookimg.com/image/A0BNd

https://lookimg.com/image/A0OQ9

https://lookimg.com/image/A0ght

Video
ID : 0
Format : MPEG-4 Visual
Format profile : [emailprotected]/* */
Format settings, BVOP : No
Format settings, QPel : No
Format settings, GMC : No warppoints
Format settings, Matrix : Default (H.263)
Codec ID : XVID
Codec ID/Hint : XviD
Duration : 1 h 34 min
Bit rate : 1 827 kb/s
Width : 720 pixels
Height : 304 pixels
Display aspect ratio : 2.40:1
Frame rate : 23.976 (24000/1001) FPS
Color space : YUV
Chroma subsampling : 4:2:0
Bit depth : 8 bits
Scan type : Progressive
Compression mode : Lossy
Bits/(Pixel*Frame) : 0.348
Stream size : 1.20 GiB (82%)
Writing library : Lavc57.100.103

Audio
ID : 1
Format : AC-3
Format/Info : Audio Coding 3
Format settings, Endianness : Big
Codec ID : 2000
Duration : 1 h 34 min
Bit rate mode : Constant
Bit rate : 384 kb/s
Channel(s) : 6 channels
Channel positions : Front: L C R, Side: L R, LFE
Sampling rate : 48.0 kHz
Frame rate : 31.250 FPS (1536 spf)
Bit depth : 16 bits
Compression mode : Lossy
Stream size : 259 MiB (17%)
Alignment : Aligned on interleaves
Interleave, duration : 42 ms (1.00 video frame)
Interleave, preload duration : 512 ms
Service kind : Complete Main

related torrents

Torrent name

health leech seeds Size
 


comments (0)

Main Menu