Movies - Other

Old Boy 2003 720p Esub BluRay Dual Audio Hindi Korean GOPISAHI mkv

  • Download 5x Faster
  • Download torrent
  • Direct Download
  • Rate this torrent +  |  -

Torrent info

Name:Old Boy 2003 720p Esub BluRay Dual Audio Hindi Korean GOPISAHI mkv

Total Size: 933.48 MB

Magnet: Magnet Link

Seeds: 89

Leechers: 34

Stream: Watch Online @ Movie4u

Torrent added: 2017-08-18 03:50:05



VPN For Torrents

Torrent Files List


Old Boy 2003 720p Esub BluRay Dual Audio Hindi Korean GOPISAHI.mkv (Size: 933.48 MB) (Files: 1)

 Old Boy 2003 720p Esub BluRay Dual Audio Hindi Korean GOPISAHI.mkv

933.48 MB
 

tracker

leech seeds
 

Torrent description

Subtitle : English

Quality :BluRay 720p

Encoder :[emailprotected]/* */

Source :720p.BluRay.x264.DTS-WiKi

Uploader :GOSAJATT

HINDI AUDIO BY GD DVD AUDIO
Old Boy 2003 720p Esub BluRay Dual Audio Hindi Korean GOPISAHI mkv preview 0
General
Unique ID : 17699835978936639158509548871069.....
Complete name : F:DUB2003Old Boy 2003 720p Esub BluRay Dual Audio Hindi Korean GOPISAHI
Format : Matroska
Format version : Version 4 / Version 2
File size : 933 MiB
Duration : 1 h 59 min
Overall bit rate : 1 088 kb/s
Movie name : Old Boy 2003 GOPISAHI

Video
Format : AVC
Codec ID : V_MPEG4/ISO/AVC
Duration : 1 h 59 min
Bit rate : 925 kb/s
Width : 1 280 pixels
Height : 552 pixels
Display aspect ratio : 2.35:1
Frame rate mode : Constant
Frame rate : 23.976 (24000/1001) FPS
Stream size : 794 MiB (85%)
Writing library : x264 core 138 r2358 9e941d1

Audio #1
Format : AAC
Duration : 1 h 57 min
Bit rate : 78.9 kb/s
Channel(s) : 6 channels
Channel positions : Front: L C R, Side: L R, LFE
Sampling rate : 44.1 kHz
Frame rate : 43.066 FPS (1024 SPF)
Stream size : 66.4 MiB (7%)
Language : Hindi

Audio #2
Format : AAC
Duration : 1 h 59 min
Bit rate : 83.0 kb/s
Channel(s) : 6 channels
Channel positions : Front: L C R, Side: L R, LFE
Sampling rate : 44.1 kHz
Frame rate : 43.066 FPS (1024 SPF)
Stream size : 71.2 MiB (8%)
Language : Korean

Text
Language : English
Old Boy 2003 720p Esub BluRay Dual Audio Hindi Korean GOPISAHI mkv preview 1
Old Boy 2003 720p Esub BluRay Dual Audio Hindi Korean GOPISAHI mkv preview 2
Old Boy 2003 720p Esub BluRay Dual Audio Hindi Korean GOPISAHI mkv preview 3
Old Boy 2003 720p Esub BluRay Dual Audio Hindi Korean GOPISAHI mkv preview 4

related torrents

Torrent name

health leech seeds Size
 


comments (0)

Main Menu